Login

  

Batman Vs Two Face





Thread creado por clarko el 07/10/2017 12:18:07 pm. Lecturas: 2,755. Mensajes: 12. Favoritos: 2





07/10/2017 12:18:07 pm 
       10                           
clarko


Miembro desde: 22/12/2003

Threads abiertos: 288
Mensajes: 12371  
Subtítulos subidos: 0
Threads Favoritos: 308





Batman.Vs.Two.Face.2017.DVDRip.XviD.AC3-EVO



Sinopsis En la Penitenciaría de Gotham, en presencia de Batman, Robin y el Fiscal de Distrito Harvey Dent, el Dr. Hugo Strange y su asistente, Dr. Harleen Quinzel, realizan un experimento en cinco presos Joker, Penguin, Riddler, Egghead y Mr. Freeze en un intento de eliminar su mal con una máquina llamada Evil Extractor. El experimento funciona mal y Harvey se expone a un gas marcándole el lado izquierdo de su cara y que hace que éste se convierta en Dos Caras.



Video
ID : 0
Format : MPEG-4 Visual
Format profile : Advanced [email protected]
Format settings, BVOP : 2
Format settings, QPel : No
Format settings, GMC : No warppoints
Format settings, Matrix : Default (H.263)
Muxing mode : Packed bitstream
Codec ID : XVID
Codec ID/Hint : XviD
Duration : 1 h 12 min
Bit rate : 1 671 kb/s
Width : 720 pixels
Height : 400 pixels
Display aspect ratio : 16:9
Frame rate : 23.976 (24000/1001) FPS
Color space : YUV
Chroma subsampling : 4:2:0
Bit depth : 8 bits
Scan type : Progressive
Compression mode : Lossy
Bits/(PixelFrame) : 0.242
Stream size : 862 MiB (81%)
Writing library : XviD 66

Audio
ID : 1
Format : AC-3
Format/Info : Audio Coding 3
Format settings, Endianness : Big
Codec ID : 2000
Duration : 1 h 12 min
Bit rate mode : Constant
Bit rate : 384 kb/s
Channel(s) : 6 channels
Channel positions : Front: L C R, Side: L R, LFE
Sampling rate : 48.0 kHz
Frame rate : 31.250 FPS (1536 spf)
Bit depth : 16 bits
Compression mode : Lossy
Stream size : 198 MiB (19%)
Alignment : Split accross interleaves
Interleave, duration : 42 ms (1.00 video frame)
Interleave, preload duration : 500 ms
Service kind : Complete Main




1010 10



07/10/2017 12:57:20 pm 
       1                           
Orfeox


Miembro desde: 24/04/2006

Threads abiertos: 2
Mensajes: 5868  
Subtítulos subidos: 0
Threads Favoritos: 0





Nose que mierda la esta pasando a DC .... era casi inmejorable en peliculas animadas , ahora esta sacando estas mierdas con animacion y tematica ridicula .


07/10/2017 01:09:09 pm 
       6                           
Ultima pelicula que tendra la voz de Adam West como Batman!!




07/10/2017 01:19:43 pm 
       1                           
Orfeox escribió:
Nose que mierda la esta pasando a DC .... era casi inmejorable en peliculas animadas , ahora esta sacando estas mierdas con animacion y tematica ridicula .


Justamente venia a decir lo mismo, anteriormente lo bueno de DC era su universo animado y como se tomaban su tiempo para realizar sus películas (tardaban en salir mas o menos 1 o como mucho 2 películas por año) pero así también tenias una calidad buenisima (historia, guión, dibujo) pero ahora sacan cualquier cosa solo para vender, comprendo que ese es una de las metas de una empresa... Vender sus productos, pero si siguen sacando cualquier cosa solo por el hecho de tener el nombre de Batman, las personas se van a cansar de seguir comiendo mierda y van a dejar de verlas.

También se que es como un homenaje a Adam West que hace poco falleció pero, tampoco para robar con ello solo para jugar con la nostalgia de los fanáticos de huesos colorados. La ultima película que vi del universo animado de DC fue Batman: Bad Blood, aparentemente me tengo que poner al día con muchas, muchas películas que salieron después de eso.


07/10/2017 01:22:45 pm 
       0                           
Tendré que verla para después juzgar


07/10/2017 05:15:17 pm 
       0                           
abelmoreno


Miembro desde: 08/11/2009

Threads abiertos: 25
Mensajes: 174  
Subtítulos subidos: 0
Threads Favoritos: 0





Buenasssss, nada personal, pero odio estas peliculas con onda años sesenta, ya fue, me gusta mucho mas la tematica mas oscura, con personajes mas macabros, y no tan payasescos. saludos



07/10/2017 09:06:40 pm 
       1                           
Un clásico por ser la última peli con la voz de Adam West.
Comprando, Grácias por la info y van unos votos.


07/10/2017 09:08:05 pm 
       0                           
Kantico


Miembro desde: 20/09/2006

Threads abiertos: 9
Mensajes: 705  
Subtítulos subidos: 0
Threads Favoritos: 0





Buscando para bajar.


08/10/2017 11:39:59 pm 
       0                           
cinecubano


Miembro desde: 10/01/2017

Threads abiertos: 0
Mensajes: 86  
Subtítulos subidos: 0
Threads Favoritos: 0



que vuelvan las animaciones de antes, que estas no me gustan, la pasada de Harley quinn una pesadez y seguro esta igual, es mejor ver las otras, las que eran con el hijo de Batman me gustaron mucho


09/10/2017 09:27:48 am 
       1                           
Kantico


Miembro desde: 20/09/2006

Threads abiertos: 9
Mensajes: 705  
Subtítulos subidos: 0
Threads Favoritos: 0





Ya hagan Vampiros en la Habana 3


10/10/2017 07:00:37 pm 
       1                           
clarko


Miembro desde: 22/12/2003

Threads abiertos: 288
Mensajes: 12371  
Subtítulos subidos: 0
Threads Favoritos: 308





Batman vs. Two-Face 2017 1080p BluRay x264 DTS-HD MA 5.1-MTeam


11/10/2017 12:53:08 pm 
       0                           
Kantico


Miembro desde: 20/09/2006

Threads abiertos: 9
Mensajes: 705  
Subtítulos subidos: 0
Threads Favoritos: 0





me parecio verlo con subs en un tracker privado






batman

1